为你的整轨音乐打造CUE

高路遥2014-11-17 09:05应用 标签:音乐 技巧

想必各类音乐党们对整轨音乐文件不陌生吧,它说白了就是将几首歌合并成一首歌,这样下载一个专辑只有一个文件,会更方便。不过也正是因此,你无法知道每首单曲的名字、信息,甚至你在播放整轨音乐的时候连每首单曲的开始时间都会把你弄得晕头转向。

不过不用怕,CUE文件正是为解决这个问题而诞生的,它记录每首歌的播放信息,使得播放器能正确定位每首歌,同时你也能知道每首歌的歌名了。由此CUE文件也成为了整轨音乐不可缺少的一部分,没有它就如同一本书没有目录,让人欲哭无泪。如果你有喜欢的多首歌曲或某位歌星的专辑,想自己动手打造一个CUE文件,该如何操作呢?下面就来跟我一起手工制作CUE吧。

首先咱们用记事本打开一个CUE来透彻一下文件的结构。

1

PERFORMER “Avril Lavigne” //专辑歌手或艺术家名字,一般有单个曲目歌手名字后,不需要整张专辑歌手的名字了,就像此处是可有可无的

TITLE “个人收藏” //专辑名字

FILE “个人收藏.ape” WAVE //文件名,后缀尽量加上

TRACK 01 AUDIO //01是音轨的序列,就是第几首歌

TITLE “ I Will Be” //单曲曲名

PERFORMER “Avril Lavigne” //单曲歌手或艺术家

INDEX 01 00:00:00 //这首歌曲的开始时间

TRACK 02 AUDIO

TITLE “innocence”

PERFORMER “Avril Lavigne”

INDEX 00 04:00:46 //上一首歌结束时间(00指上一首歌曲),用于相邻两条音轨有空白部分的情况,如没有则可忽略

INDEX 01 04:02:32 //空白后,这首歌的开始时间(01指当前这首歌)

TRACK 03 AUDIO

TITLE “my happy ending”

PERFORMER “Avril Lavigne”

INDEX 01 08:04:22

TRACK 04 AUDIO

TITLE “Nobody's Home”

PERFORMER “Avril Lavigne”

INDEX 01 12:22:27

有时我们还会看到REM XXXXXXXXXX这么一段,它只是注释语句,属于非执行语句,后面随便写什么都可以。

咳咳,什么?你说看不懂,写不来?好吧,其实我私藏了一个工具。下面拿出我们的工具CreateCUE来用工具软件制作一个吧。 不过这款软件原本的用途是对多个分轨音乐制作CUE,因此有些功能并不适合,所幸的是我们只需要它代劳繁琐的的代码就够了。

从左边打开整轨音乐文件, 接下来在界面中间填好艺术家和专辑后点预览CUE,如图1我们可以看到软件已经生成了一首歌的cue代码,剩下的有几首歌就复制几遍代码,然后把对应歌的名字(TITLE)、歌手(PERFORMER)、音轨号(TRACK)和时间(INDEX)改一改就可以了,注意如果两首歌之间有空段,那要在空段后面那首歌的代码中手工加入“INDEX 00 上首歌的结束时间”,具体参考上面的代码分析。

现在代码解决了,但是问题又来了:如何找出手头这个整轨音乐文件的每首歌的开始和结束时间呢?这时候就该大神出场了。没错,大神就是传说中的GoldWave。

我们用GoldWave载入文件,如图ZGBW,我们可以看到,用了GoldWave可以根据波纹、声音找出歌曲的开始和结束时间。 最后将这些数据依次替换原CUE中的时间,点击生成CUE就大功告成了,注意不要忘了CUE文件的命名规则:整轨音乐文件名.cue。

ZGBW

ZGBW